查看: 376|回复: 37

【免费/国语】全网首发.终结者6:黑暗命运.Terminator.Dark.Fate.2019.BluRay.1080

[复制链接]
发表于 2020-3-21 18:44:15 | 显示全部楼层 |阅读模式
本论坛尾收,公映国配音轨已出完善婚配,尽快珍藏;
今朝网上的9.5G版本的蓝光资本被迅雷调和没法下载,特分享百渡云盘;
激烈保举,感激撑持!

片名: 闭幕者6:黑岸运气 / 闭幕者6:黑岸宿命 / 闭幕者2019 / 闭幕者6 / Terminator 6
导演: 蒂姆·米勒
编剧: 詹姆斯·卡梅隆 / 查我斯·H·伊格里 / 乔什·弗莱德曼 / 年夜卫·S·下耶 / 贾斯汀·罗德斯 / 比利·雷 / 盖我·安妮·赫德
主演: 麦肯子毪戴维斯 / 娜塔利娅·雷耶斯 / 琳达·汉稀我顿 / 阿诺·施瓦辛格 / 减布里埃我·鲁纳 / 更多...
范例: 行动 / 科幻 / 冒险
造片国度/地域: 好国 / 止您年夜陆
言语: 英语/一般话

字幕:中文简体/繁体殊效字幕
上映日期: 2019-11-01(好国/止您年夜陆)
片少: 128分钟 / 02:08:05
剧情简介
  《闭幕者2:审讯日》发作的27年后,因为将来天网派去T-800胜利杀逝世年幼的约翰,致使令将来发生变革,一个齐新退化的液态金属闭幕者从将来派出,目标是逃杀持庸呢键讯息的丹妮·推莫斯、半死化人葛蕾吮巴她的伴侣。那使莎推·康纳和胜利杀逝世约翰的T800闭幕者前去协助她们一止人,以配合为了仁攀类的将来而战。

Format                         : Matroska
Format version                 : Version 4
File size                      : 9.70 GiB
Duration                       : 2 h 8 min
Overall bit rate mode          : Variable
Overall bit rate               : 10.8 Mb/s
Encoded date                   : UTC 2020-03-21 04:15:09
Writing application            : mkvmerge v7.3.0 ('Nouages') 32bit built on Oct 22 2014 18:44:01
Writing library                : libebml v1.3.0 + libmatroska v1.4.1

Video
ID                             : 1
Format                         : AVC
Format/Info                    : Advanced Video Codec
Format profile                 : High@L4
Format settings                : CABAC / 4 Ref Frames
Format settings, CABAC         : Yes
Format settings, Reference fra : 4 frames
Codec ID                       : V_MPEG4/ISO/AVC
Duration                       : 2 h 8 min
Width                          : 1 920 pixels
Height                         : 804 pixels
Display aspect ratio           : 2.40:1
Frame rate mode                : Constant
Frame rate                     : 24.000 FPS
Color space                    : YUV
Chroma subsampling             : 4:2:0
Bit depth                      : 8 bits
Scan type                      : Progressive
Writing library                : x264 core 148 r2721+46 0c4b09a xiaowan [8-bit@all X86_64]
Encoding settings              : cabac=1 / ref=4 / deblock=1:1:1 / analyse=0x3:0x133 / me=umh / subme=10 / psy=1 / fade_compensate=0.00 / psy_rd=0.30:0.00 / mixed_ref=1 / me_range=24 / chroma_me=1 / trellis=2 / 8x8dct=1 / cqm=0 / deadzone=21,11 / fast_pskip=1 / chroma_qp_offset=-2 / threads=6 / lookahead_threads=1 / sliced_threads=0 / nr=0 / decimate=1 / interlaced=0 / bluray_compat=0 / constrained_i寝曲a=0 / fgo=0 / bframes=3 / b_pyramid=2 / b_adapt=2 / b_bias=0 / direct=3 / weightb=1 / open_gop=0 / weightp=2 / keyint=240 / keyint_min=1 / scenecut=60 / i寝曲a_refresh=0 / rc_lookahead=60 / rc=crf / mbtree=1 / crf=15.0000 / qcomp=0.50 / qpmin=0:0:0 / qpmax=69:69:69 / qpstep=4 / ip_ratio=1.40 / aq=2:0.80 / aq-sensitivity=10.00 / aq-factor=1.00:1.00:1.00 / aq2=0 / aq3=0
Language                       : English
Default                        : Yes
Forced                         : No
Color range                    : Limited
Matrix coefficients            : BT.709

Audio #1
ID                             : 2
Format                         : AC-3
Format/Info                    : Audio Coding 3
Commercial name                : Dolby Digital
Codec ID                       : A_AC3
Duration                       : 2 h 8 min
Bit rate mode                  : Constant
Bit rate                       : 640 kb/s
Channel(s)                     : 6 channels
Channel layout                 : L R C LFE Ls Rs
Sampling rate                  : 48.0 kHz
Frame rate                     : 31.250 FPS (1536 SPF)
Compression mode               : Lossy
Stream size                    : 586 MiB (6%)
Language                       : English
Service kind                   : Complete Main
Default                        : No
Forced                         : Yes

Audio #2
ID                             : 3
Format                         : MLP FBA 16-ch
Format/Info                    : Meridian Lossless Packing FBA with 16-channel presentation
Commercial name                : Dolby TrueHD with Dolby Atmos
Codec ID                       : A_TRUEHD
Duration                       : 2 h 8 min
Bit rate mode                  : Variable
Maximum bit rate               : 8 247 kb/s
Channel(s)                     : 8 channels
Channel layout                 : L R C LFE Ls Rs Lb Rb
Sampling rate                  : 48.0 kHz
Frame rate                     : 1 200.000 FPS (40 SPF)
Compression mode               : Lossless
Language                       : English
Default                        : No
Forced                         : No
Number of dynamic objects      : 11
Bed channel count              : 1 channel
Bed channel configuration      : LFE

Audio #3
ID                             : 8
Format                         : AC-3
Format/Info                    : Audio Coding 3
Commercial name                : Dolby Digital
Codec ID                       : A_AC3
Duration                       : 2 h 8 min
Bit rate mode                  : Constant
Bit rate                       : 192 kb/s
Channel(s)                     : 2 channels
Channel layout                 : L R
Sampling rate                  : 44.1 kHz
Frame rate                     : 28.711 FPS (1536 SPF)
Compression mode               : Lossy
Stream size                    : 176 MiB (2%)
Language                       : Chinese
Service kind                   : Complete Main
Default                        : Yes
Forced                         : No



旅客,假如您要检察本帖躲藏内容请复兴




本帖子中包含更多资源

您需要 登录 才可以下载或查看,没有帐号?立即注册

x
九游乐乐游戏网 WWW.JIUYOULL.COM
发表于 2020-3-21 20:40:13 | 显示全部楼层
真是难得
九游乐乐游戏网 WWW.JIUYOULL.COM
回复

使用道具 举报

发表于 2020-3-21 21:42:15 | 显示全部楼层
真是难得
九游乐乐游戏网 WWW.JIUYOULL.COM
回复

使用道具 举报

发表于 2020-3-21 22:51:45 | 显示全部楼层
支持楼主
九游乐乐游戏网 WWW.JIUYOULL.COM
回复

使用道具 举报

发表于 2020-3-22 00:12:44 | 显示全部楼层
支持楼主
九游乐乐游戏网 WWW.JIUYOULL.COM
回复

使用道具 举报

发表于 2020-3-22 00:13:03 | 显示全部楼层
支持楼主
九游乐乐游戏网 WWW.JIUYOULL.COM
回复

使用道具 举报

发表于 2020-3-22 00:13:51 | 显示全部楼层
太高兴了
九游乐乐游戏网 WWW.JIUYOULL.COM
回复

使用道具 举报

发表于 2020-3-22 00:14:15 | 显示全部楼层
真是难得
九游乐乐游戏网 WWW.JIUYOULL.COM
回复

使用道具 举报

发表于 2020-3-22 02:16:34 | 显示全部楼层
楼主加油
九游乐乐游戏网 WWW.JIUYOULL.COM
回复

使用道具 举报

发表于 2020-3-22 08:19:25 | 显示全部楼层
支持楼主
九游乐乐游戏网 WWW.JIUYOULL.COM
回复

使用道具 举报

您需要登录后才可以回帖 登录 | 立即注册

本版积分规则

1、请认真发帖,禁止回复纯表情,纯数字等无意义的内容!
4、如果你对主帖作者的帖子不屑一顾的话,请勿回帖。谢谢合作!

小黑屋|九游乐乐 ( 鄂ICP备19004110号-2 )

JS of wanmeiff.com and vcpic.com Please keep this copyright information, respect of, thank you!JS of wanmeiff.com and vcpic.com Please keep this copyright information, respect of, thank you!

|网站地图
本网站所有内容均收集于互联网,由程序自动采集或网友分享和网盘所提供的公开引用资源,也不参与破解,上传,如有侵權行為,請發郵件至 admin@mail.acgsk.com
侵害がある場合は、 に電子メールを送ってください ----If there is any infringement, please send an email to admin@mail.acgsk.com
今天是:
返回顶部